Ads1

Tuesday, January 22, 2019

BBC - 2011 - New York Rock at BBC - HDTV > DVD


Thanks To Original Uploader For File Produce The DVD
DVD Authoring & DVD Cover By Deer 5001

*****/*****

BBC - 2011 - New York Rock at BBC

Setlist:

01.New York Dolls - Jet Boy
(Old Grey Whistle Test - Nov 1973)
02.Patti Smith Group - Horses
(Old Grey Whistle Test - May 1976)
03.Talking Heads - Psycho Killer
(Old Grey Whistle Test - Jan 1978)
04.Television - Foxhole
(Old Grey Whistle Test - May 1978
05.Ramones - Don't Come Close
(Old Grey Whistle Test - Sep 1978)
06.Blondie - I'm Alway Touched By Your Presence Dear
(Old Grey Whistle Test - Mar 1978)
07.Lou Reed - Waiting For The Man
(Old Grey Whistle Test - Dec 1984)
08.John Cale - Dying On The Vine
(Old Grey Whistle Test - Dec 1985)
09.Sonic Youth - Sugar Kane
(Later...With Jools Holland - Dec 1992)
10.Patti Smith - Because The Night
(Later...With Jools Holland - Apr 2002)
11.Lou Reed - Perfect Day
(Later...With Jools Holland - May 2003)
12.John Cale - Venus In Furs
(Later...With Jools Holland - Oct 2003)
13.David Byrne - This Must Be The Place
(Later...With Jools Holland - May 2004)
14.Antony And The johnsons - Hope There's Some One
(Later...With Jools Holland - Jun 2005)
15.The Strokes - Last Nite
(Later...With Jools Holland - Jun 2006)

DVD Cover Included
links Free Download From
01 - KatFile
BBC_2011_NY_RockAtBBC.part1.rar - 1.2 GB
BBC_2011_NY_RockAtBBC.part2.rar - 920.1 MB

02 - Ausfile
BBC_2011_NY_RockAtBBC.part1.rar - 1.2 GB
BBC_2011_NY_RockAtBBC.part2.rar - 920.1 MB

03 - MEGA.NZ For Members of Deer 5001. Please Request or Subscribe



Monday, January 21, 2019

Taylor Swift - 2012 - VH1 Storytellers - HDTV > DVD


Thanks To Original Uploader For File Producr The DVD
DVD Authoring & DVD Cover By Deer 5001

*****/*****

Taylor Swift - 2012 - VH1 Storytellers

Setlist:

01. Interview 1
02. You Belong With Me
03. Interview 2
04. Red
05. Interview 3
06. Ours
07. Interview 4
08. Mean
09. Interview 5
10. We Are Never Ever Getting Back Together
11. Interview 6
12. Our Song
13. Interview 7
14. Love Story


Media: ProShot From HDTV Format .TS 1080i
Menu: Yes
Chapters (SongSelect): Yes
AudioSetup: Yes (AC3 5.1 & AC3 Stereo)
Sound Menu: Yes

Video Format: NTSC/16:9 Widescreen
Frame rate: 29.970 fps
Width: 720 pixels
Height: 480 pixels

Audio Format: AC3 5.1 & AC3 Stereo
Bit rate: AC3: 448 Kbps
Channels (s): 5.1 Channels / 2 Channels/Stereo

DVD Cover Included
links Free Downlaod From
01 - KatFile
TaylorSwift_2012_VH1Storytellers.part1.rar - 1.2 GB
TaylorSwift_2012_VH1Storytellers.part2.rar - 887.3 MB

02 - AusFile
TaylorSwift_2012_VH1Storytellers.part1.rar - 1.2 GB
TaylorSwift_2012_VH1Storytellers.part2.rar - 887.3 MB

03 - MEGA.NZ For Members links of Deer5001
Please Request or Subscribe.
Subscribe Click here

Steve Winwood - 2013 - Estival Jazz Lugano - HDTV > Blu-ray & DVD



Thanks To Original Uploader For File Produce The DVD
Blu-ray, DVD Authoring & Blu-ray, DVD Cover By Deer 5001

*****/*****

Steve Winwood - 2013 - Estival Jazz Lugano

Steve Winwood, Hammond,g,voc
Paul Booth,s,fl,voc,
Richard Bailey, dr ,
Cafe DaSilva, perc,
Jose Neto,g

Setlist:

01 - Rainmaker
02 - I'm a Man
03 - Fly
04 - Can't Find My Way Home
05 - Had To Cry Today
06 - Low Spark of High Heeled Boys
07 - Light Up or Leave Me Alone
08 - Higher Love
09 - Keep On Running
10 - Dear Mr. Fantasy
11 - Gimme Some Lovin'

Total Time: 01:36:11

DVD Info:
Menu: Yes
Chapters (SongSelect): Yes
SoundMenu: Yes
AudioSetup: Yes
DVD Produce From HD: Yes (Excellence Video & Audio)
Video: NTSC/16:9 Widescreen
Audio1: AC3/448 Kbps/5.1 Ch
Audio2: AC3/448 Kbps/2 Ch
Audio3: LPCM/1536 Kbps/2 Ch

Blu-ray Info:
Menu: Yes
Chapters (SongSelect): Yes
SoundMenu: Yes
AudioSetup: Yes
DVD Produce From HD: Yes (Excellence Video & Audio)

      Format : BDAV
      Format/Info : Blu-ray Video
      File size : 15.3 GiB
      Duration : 1h 36mn
      Overall bit rate : 22.8 Mbps
      Maximum Overall bit rate : 48.0 Mbps
   Video #4113
      ID : 4113 (0x1011)
      Menu ID : 1 (0x1)
      Format : MPEG Video
      Format version : Version 2
      Format profile : Main@High
      Format settings, BVOP : Yes
      Format settings, Matrix : Custom
      Format settings, GOP : M=3, N=16
      Codec ID : 2
      Duration : 1h 36mn
      Bit rate mode : Constant
      Bit rate : 20.0 Mbps
      Width : 1 280 pixels
      Height : 720 pixels
      Display aspect ratio : 16:9
      Frame rate : 59.940 fps
      Standard : Component
      Color space : YUV
      Chroma subsampling : 4:2:0
      Bit depth : 8 bits
      Scan type : Progressive
      Compression mode : Lossy
      Bits/(Pixel*Frame) : 0.362
      Stream size : 13.7 GiB (89%)
      Writing library : TMPGEnc Video Mastering Works 5 Version. 5.0.6.38
   Audio #4352
      ID : 4352 (0x1100)
      Menu ID : 1 (0x1)
      Format : PCM
      Format settings, Endianness : Big
      Format settings, Sign : Signed
      Muxing mode : Blu-ray
      Codec ID : 128
      Duration : 1h 36mn
      Bit rate mode : Constant
      Bit rate : 1 536 Kbps
      Channel(s) : 2 channels
      Channel positions : Front: L R
      Sampling rate : 48.0 KHz
      Bit depth : 16 bits
      Stream size : 1.03 GiB (7%)

Blu-ray & DVD Cover Included
links Free Downlaod From
01 - KatFile
DVD
SteveWinwood_2013_EstivalJazz_DVD.part1.rar - 1.2 GB
SteveWinwood_2013_EstivalJazz_DVD.part2.rar - 1.2 GB
SteveWinwood_2013_EstivalJazz_DVD.part3.rar - 1.2 GB
SteveWinwood_2013_EstivalJazz_DVD.part4.rar - 840.7 MB

Blu-ray
SteveWinwood_2013_EstivalJazz_BD.part01.rar - 1.2 GB
SteveWinwood_2013_EstivalJazz_BD.part02.rar - 1.2 GB
SteveWinwood_2013_EstivalJazz_BD.part03.rar - 1.2 GB
SteveWinwood_2013_EstivalJazz_BD.part04.rar - 1.2 GB
SteveWinwood_2013_EstivalJazz_BD.part05.rar - 1.2 GB
SteveWinwood_2013_EstivalJazz_BD.part06.rar - 1.2 GB
SteveWinwood_2013_EstivalJazz_BD.part07.rar - 1.2 GB
SteveWinwood_2013_EstivalJazz_BD.part08.rar - 1.2 GB
SteveWinwood_2013_EstivalJazz_BD.part09.rar - 1.2 GB
SteveWinwood_2013_EstivalJazz_BD.part10.rar - 1.2 GB
SteveWinwood_2013_EstivalJazz_BD.part11.rar - 1.2 GB
SteveWinwood_2013_EstivalJazz_BD.part12.rar - 1.2 GB
SteveWinwood_2013_EstivalJazz_BD.part13.rar - 1.2 GB
SteveWinwood_2013_EstivalJazz_BD.part14.rar - 1.1 GB

02 - AusFile
DVD
SteveWinwood_2013_EstivalJazz_DVD.part1.rar - 1.2 GB
SteveWinwood_2013_EstivalJazz_DVD.part2.rar - 1.2 GB
SteveWinwood_2013_EstivalJazz_DVD.part3.rar - 1.2 GB
SteveWinwood_2013_EstivalJazz_DVD.part4.rar - 840.7 MB

Blu-ray
SteveWinwood_2013_EstivalJazz_BD.part01.rar - 1.2 GB
SteveWinwood_2013_EstivalJazz_BD.part02.rar - 1.2 GB
SteveWinwood_2013_EstivalJazz_BD.part03.rar - 1.2 GB
SteveWinwood_2013_EstivalJazz_BD.part04.rar - 1.2 GB
SteveWinwood_2013_EstivalJazz_BD.part05.rar - 1.2 GB
SteveWinwood_2013_EstivalJazz_BD.part06.rar - 1.2 GB
SteveWinwood_2013_EstivalJazz_BD.part07.rar - 1.2 GB
SteveWinwood_2013_EstivalJazz_BD.part08.rar - 1.2 GB
SteveWinwood_2013_EstivalJazz_BD.part09.rar - 1.2 GB
SteveWinwood_2013_EstivalJazz_BD.part10.rar - 1.2 GB
SteveWinwood_2013_EstivalJazz_BD.part11.rar - 1.2 GB
SteveWinwood_2013_EstivalJazz_BD.part12.rar - 1.2 GB
SteveWinwood_2013_EstivalJazz_BD.part13.rar - 1.2 GB
SteveWinwood_2013_EstivalJazz_BD.part14.rar - 1.1 GB

03 -  MEGA.NZ For Members of Deer 5001. Please Request
Subscribe Click here

Saturday, January 19, 2019

KREATOR - 2017-08-12 - Bloodstock Open Air - HD-Webcast > Blu-ray & DVD



Thanks To Original Uploader For File Produce The DVD
Blu-ray, DVD Authoring & Blu-ray Cover, DVD Cover By Deer 5001

*****/*****

KREATOR
2017-08-12
Bloodstock Open Air
Catton Hall Park
Walton upon Trent
England

Setlist:

01 - Hordes Of Chaos
02 - Phobia
03 - Satan Is Real
04 - Gods Of Violence
05 - People Of The Lie
06 - Total Death
07 - Phantom Antichrist
08 - Fallen Brother
09 - Enemy Of God
10 - Civilisation Collapse
11 - Violent Revolution
12 - Pleasure To Kill

Total Time: 01:02:40

DVD Info
Menu: Yes
Chapters (SongSelect): Yes
SoundMenu: Yes
AudioSetup: Yes
DVD Produce From HD: Yes (Excellence Video & Audio)
Video: NTSC/16:9 Widescreen
Audio1: AC3/448 Kbps/5.1 Ch
Audio2: AC3/448 Kbps/2 Ch
Audio3: LPCM/1536 Kbps/2 Ch

Blu-ray Info:
Menu: Yes
Chapters (SongSelect): Yes
SoundMenu: Yes
      Format : BDAV
      Format/Info : Blu-ray Video
      File size : 12.3 GiB
      Duration : 1h 2mn
      Overall bit rate : 28.0 Mbps
      Maximum Overall bit rate : 48.0 Mbps
   Video #4113
      ID : 4113 (0x1011)
      Menu ID : 1 (0x1)
      Format : MPEG Video
      Format version : Version 2
      Format profile : Main@High
      Format settings, BVOP : Yes
      Format settings, Matrix : Custom
      Format settings, GOP : M=3, N=16
      Codec ID : 2
      Duration : 1h 2mn
      Bit rate mode : Constant
      Bit rate : 25.0 Mbps
      Width : 1 280 pixels
      Height : 720 pixels
      Display aspect ratio : 16:9
      Frame rate : 59.940 fps
      Standard : Component
      Color space : YUV
      Chroma subsampling : 4:2:0
      Bit depth : 8 bits
      Scan type : Progressive
      Compression mode : Lossy
      Bits/(Pixel*Frame) : 0.453
      Stream size : 11.1 GiB (91%)
      Writing library : TMPGEnc Video Mastering Works 5 Version. 5.0.6.38
   Audio #4352
      ID : 4352 (0x1100)
      Menu ID : 1 (0x1)
      Format : PCM
      Format settings, Endianness : Big
      Format settings, Sign : Signed
      Muxing mode : Blu-ray
      Codec ID : 128
      Duration : 1h 2mn
      Bit rate mode : Constant
      Bit rate : 1 536 Kbps
      Channel(s) : 2 channels
      Channel positions : Front: L R
      Sampling rate : 48.0 KHz
      Bit depth : 16 bits
      Stream size : 689 MiB (5%)

Blu-ray Cover & DVD Cover Included
links Free Downlaod From
01 - KatFile
DVD
Kreator_2017_Bloodstock_DVD.part1.rar - 1.2 GB
Kreator_2017_Bloodstock_DVD.part2.rar - 1.2 GB
Kreator_2017_Bloodstock_DVD.part3.rar - 661.3 MB

Blu-ray
Kreator_2017_Bloodstock_BD.part01.rar - 1.2 GB
Kreator_2017_Bloodstock_BD.part02.rar - 1.2 GB
Kreator_2017_Bloodstock_BD.part03.rar - 1.2 GB
Kreator_2017_Bloodstock_BD.part04.rar - 1.2 GB
Kreator_2017_Bloodstock_BD.part05.rar - 1.2 GB
Kreator_2017_Bloodstock_BD.part06.rar - 1.2 GB
Kreator_2017_Bloodstock_BD.part07.rar - 1.2 GB
Kreator_2017_Bloodstock_BD.part08.rar - 1.2 GB
Kreator_2017_Bloodstock_BD.part09.rar - 1.2 GB
Kreator_2017_Bloodstock_BD.part10.rar - 1.2 GB
Kreator_2017_Bloodstock_BD.part11.rar - 956.3 MB

02 - AusFile
DVD
Kreator_2017_Bloodstock_DVD.part1.rar - 1.2 GB
Kreator_2017_Bloodstock_DVD.part2.rar - 1.2 GB
Kreator_2017_Bloodstock_DVD.part3.rar - 661.3 MB


Blu-ray
Kreator_2017_Bloodstock_BD.part01.rar - 1.2 GB
Kreator_2017_Bloodstock_BD.part02.rar - 1.2 GB
Kreator_2017_Bloodstock_BD.part03.rar - 1.2 GB
Kreator_2017_Bloodstock_BD.part04.rar - 1.2 GB
Kreator_2017_Bloodstock_BD.part05.rar - 1.2 GB
Kreator_2017_Bloodstock_BD.part06.rar - 1.2 GB
Kreator_2017_Bloodstock_BD.part07.rar - 1.2 GB
Kreator_2017_Bloodstock_BD.part08.rar - 1.2 GB
Kreator_2017_Bloodstock_BD.part09.rar - 1.2 GB
Kreator_2017_Bloodstock_BD.part10.rar - 1.2 GB
Kreator_2017_Bloodstock_BD.part11.rar - 956.3 MB

Friday, January 18, 2019

Epica & Lacuna Coil - 2017-09-28 - The Trocadero Theatre, Philadelphia, PA - HD-aud > DVD


Thanks To Death Stalker For File Produce The DVD
DVD Authoring & DVD Cover By Deer 5001

*****/*****

Epica & Lacuna Coil
The Trocadero Theatre
Philadelphia, PA
2017-09-28

Epica

Setlist:

01 - Intro
02 - Edge of the Blade
03 - A Phantasmic Parade
04 - Sensorium
05 - Wheel of Destiny
06 - The Essence of Silence
07 - Universal Death Squad
08 - Reverence (Living in the Heart)
09 - Storm the Sorrow
10 - Unchain Utopia
11 - Cry for the Moon
12 - Sancta Terra
13 - Beyond the Matrix
14 - Consign to Oblivion

Lacuna Coil

Setlist:

01 - Ultima Ratio
02 - Spellbound
03 - Die & Rise
04 - Heaven's a Lie
05 - Blood, Tears, Dust
06 - Ghost in the Mist
07 - My Demons
08 - Trip the Darkness
09 - Downfall
10 - Our Truth
11 - Nothing Stands in Our Way
12 - The House of Shame

DVD Info
Menu: Yes
Chapters (SongSelect): Yes
SoundMenu: Yes
AudioSetup: Yes
DVD Produce From HD: Yes (Excellence Video & Audio)
Video: NTSC/16:9 Widescreen
Audio: AC3/448 Kbps/5.1 Ch

DVD Cover Included
links Free Download From
01 - AusFile
Epica_LacunaCoil_2017_TrocaderoTheatre.part1.rar - 1.2 GB
Epica_LacunaCoil_2017_TrocaderoTheatre.part2.rar - 1.2 GB
Epica_LacunaCoil_2017_TrocaderoTheatre.part3.rar - 1.2 GB
Epica_LacunaCoil_2017_TrocaderoTheatre.part4.rar - 1.2 GB
Epica_LacunaCoil_2017_TrocaderoTheatre.part5.rar - 1.2 GB
Epica_LacunaCoil_2017_TrocaderoTheatre.part6.rar - 1.2 GB
Epica_LacunaCoil_2017_TrocaderoTheatre.part7.rar - 506.5 MB

02 - KatFile
Epica_LacunaCoil_2017_TrocaderoTheatre.part1.rar - 1.2 GB
Epica_LacunaCoil_2017_TrocaderoTheatre.part2.rar - 1.2 GB
Epica_LacunaCoil_2017_TrocaderoTheatre.part3.rar - 1.2 GB
Epica_LacunaCoil_2017_TrocaderoTheatre.part4.rar - 1.2 GB
Epica_LacunaCoil_2017_TrocaderoTheatre.part5.rar - 1.2 GB
Epica_LacunaCoil_2017_TrocaderoTheatre.part6.rar - 1.2 GB
Epica_LacunaCoil_2017_TrocaderoTheatre.part7.rar - 506.5 MB

Thursday, January 17, 2019

MEGADETH - 2017-08-13 - Bloodstock Open Air - HD-webcast > Blu-ray & DVD




Thanks To Original Uploader For File Produce The DVD & Blu-ray
 Blu-ray, DVD Authoring & Blu-ray, DVD Cover By Deer 5001

*****/*****

MEGADETH
2017-08-13
Bloodstock Open Air
Catton Hall Park
Walton upon Trent
England

Setlist:

01 - Intro (Prince Of Darkness)
02 - Hangar 18
03 - The Threat Is Real
04 - Wake Up Dead
05 - In My Darkest Hour
06 - Sweating Bullets
07 - Conquer Or Die
08 - Poisonous Shadows
09 - She Wolf
10 - Trust
11 - Mechanix
12 - A Tout Le Monde
13 - Tornado Of Souls
14 - Dystopia
15 - Symphony Of Destruction
Encore
16 - Peace Sells
Encore 2
17 - Holy Wars

Total Time: 01:26:25

DVD Info
Menu: Yes
Chapters (SongSelect): Yes
SoundMenu: Yes
AudioSetup: Yes
DVD Produce From HD: Yes (Excellence Video & Audio)
Video: NTSC/16:9 Widescreen
Audio1: AC3/448 Kbps/5.1 Ch
Audio2: AC3/448 Kbps/2 Ch
Audio3: LPCM/1536 Kbps/2 Ch

Blu-ray Info:
Menu: Yes
Chapters (SongSelect): Yes
SoundMenu: Yes

      Format : BDAV
      Format/Info : Blu-ray Video
      File size : 13.8 GiB
      Duration : 1h 26mn
      Overall bit rate : 22.8 Mbps
      Maximum Overall bit rate : 48.0 Mbps
   Video #4113
      ID : 4113 (0x1011)
      Menu ID : 1 (0x1)
      Format : MPEG Video
      Format version : Version 2
      Format profile : Main@High
      Format settings, BVOP : Yes
      Format settings, Matrix : Custom
      Format settings, GOP : M=3, N=16
      Codec ID : 2
      Duration : 1h 26mn
      Bit rate mode : Constant
      Bit rate : 20.0 Mbps
      Width : 1 280 pixels
      Height : 720 pixels
      Display aspect ratio : 16:9
      Frame rate : 59.940 fps
      Standard : Component
      Color space : YUV
      Chroma subsampling : 4:2:0
      Bit depth : 8 bits
      Scan type : Progressive
      Compression mode : Lossy
      Bits/(Pixel*Frame) : 0.362
      Stream size : 12.3 GiB (89%)
      Writing library : TMPGEnc Video Mastering Works 5 Version. 5.0.6.38
   Audio #4352
      ID : 4352 (0x1100)
      Menu ID : 1 (0x1)
      Format : PCM
      Format settings, Endianness : Big
      Format settings, Sign : Signed
      Muxing mode : Blu-ray
      Codec ID : 128
      Duration : 1h 26mn
      Bit rate mode : Constant
      Bit rate : 1 536 Kbps
      Channel(s) : 2 channels
      Channel positions : Front: L R
      Sampling rate : 48.0 KHz
      Bit depth : 16 bits
      Stream size : 950 MiB (7%)

Blu-ray & DVD Cover Included
links Free Downlaod From

01 - KatFile
DVD
Megadeth_2017_Bloodstock_DVD.part1.rar - 1.2 GB
Megadeth_2017_Bloodstock_DVD.part2.rar - 1.2 GB
Megadeth_2017_Bloodstock_DVD.part3.rar - 1.2 GB
Megadeth_2017_Bloodstock_DVD.part4.rar - 497.3 MB

Blu-ray
Megadeth_2017_Bloodstock_BD.part01.rar - 1.2 GB
Megadeth_2017_Bloodstock_BD.part02.rar - 1.2 GB
Megadeth_2017_Bloodstock_BD.part03.rar - 1.2 GB
Megadeth_2017_Bloodstock_BD.part04.rar - 1.2 GB
Megadeth_2017_Bloodstock_BD.part05.rar - 1.2 GB
Megadeth_2017_Bloodstock_BD.part06.rar - 1.2 GB
Megadeth_2017_Bloodstock_BD.part07.rar - 1.2 GB
Megadeth_2017_Bloodstock_BD.part08.rar - 1.2 GB
Megadeth_2017_Bloodstock_BD.part09.rar - 1.2 GB
Megadeth_2017_Bloodstock_BD.part10.rar - 1.2 GB
Megadeth_2017_Bloodstock_BD.part11.rar - 967.5 MB

02 - AusFile
DVD
Megadeth_2017_Bloodstock_DVD.part1.rar - 1.2 GB
Megadeth_2017_Bloodstock_DVD.part2.rar - 1.2 GB
Megadeth_2017_Bloodstock_DVD.part3.rar - 1.2 GB
Megadeth_2017_Bloodstock_DVD.part4.rar - 497.3 MB

Blu-ray
Megadeth_2017_Bloodstock_BD.part01.rar - 1.2 GB
Megadeth_2017_Bloodstock_BD.part02.rar - 1.2 GB
Megadeth_2017_Bloodstock_BD.part03.rar - 1.2 GB
Megadeth_2017_Bloodstock_BD.part04.rar - 1.2 GB
Megadeth_2017_Bloodstock_BD.part05.rar - 1.2 GB
Megadeth_2017_Bloodstock_BD.part06.rar - 1.2 GB
Megadeth_2017_Bloodstock_BD.part07.rar - 1.2 GB
Megadeth_2017_Bloodstock_BD.part08.rar - 1.2 GB
Megadeth_2017_Bloodstock_BD.part09.rar - 1.2 GB
Megadeth_2017_Bloodstock_BD.part10.rar - 1.2 GB
Megadeth_2017_Bloodstock_BD.part11.rar - 967.5 MB

Venom Inc - 2018 - Bloodstock Open Air - HD-Webcast > DVD


Thanks To Original Uploader For File Produce The DVD
and Thanks To "Sammy Boulard" For Request Produce The DVD
DVD Authoring & DVD Cover By Deer 5001

*****/*****

Venom Inc
2018
Bloodstock Open Air

Setlist:

01 - Metal We Bleed
02 - Die Hard
03 - Live like an angel, die like a devil
04 - Don't burn the witch
05 - War
06 - Lady lust
07 - Leave me in hell
08 - Black Metal
09 - Sons of Satan
10 - Witching Hour

Total Time: 00:43:54

DVD Info
Menu: Yes
Chapters (SongSelect): Yes
SoundMenu: Yes
AudioSetup: Yes
DVD Produce From HD: Yes (Excellence Video & Audio)
Video: NTSC/16:9 Widescreen
Audio1: AC3/448 Kbps/5.1 Ch
Audio2: AC3/448 Kbps/2 Ch
Audio3: LPCM/1536 Kbps/2 Ch

DVD Cover Included
links Free Downlaod From

01 - KatFile
VenomInc_2018_Bloodstock.part1.rar - 1.2 GB
VenomInc_2018_Bloodstock.part2.rar - 930.9 MB

02 - AusFile
VenomInc_2018_Bloodstock.part1.rar - 1.2 GB
VenomInc_2018_Bloodstock.part2.rar - 930.9 MB

THE BEATLES - "Live in Concert" (2 dvd set)


THE BEATLES - "Live in Concert" (2 dvd set)
Featuring 13 Performances

Slipperman: I got this so long ago I can barely remember anything about it, other than at the time I thought this was the Holy Grail of Beatles live footage! Crappy menus and the cover artwork isn't perfect but it's definitely a treasure trove of amazing stuff all in one place.
Hands down my favorite is Melbourne, the harmonies by Paul and George are fantastic! Paris is in my opinion a more enjoyable 1965 concert than Shea Stadium, although it's b&w I think the performance is superior and French television did a great job filming it. Then there's Hillegom Nehterlands with Jimmy Nichol filling in for our ailing Ringo. Rare stuff indeed!
These are the VIDEO_TS folders ripped directly from my discs.

DISC 1:
February 11th, 1964
Washington Coliseum, Washington D.C.
- complete show

April 26th, 1964
NME Poll Winners Concert
Wembley Stadium, London, England
- complete performance

July 17th, 1964
Festival Hall, Melbourne, Australia
- 9 of 10 songs performed

August 23rd, 1964
Hollywood Bowl, Hollywood, California
- 9 of 12 songs performed

April 11th, 1965
NME Poll Winners Concert
Wembley Stadium, London, England
- complete performance

June 20th, 1965
Olympia, Paris, France
- complete t.v. broadcast

June 5th, 1964
Hillegom, Netherlands
- all 6 songs performaed with Jimmy Nichol on drums!


DISC 2:
August 15th, 1965
Shea Stadium, New York
- complete performance

June 24th, 1966
Circus Krone-Bau, Munich, Germany
- all 6 songs broadcast on German t.v.

June 30th, 1966
Budokan Hall, Tokyo, Japan
- complete performance

July 1st, 1966
Budokan Hall, Tokyo, Japan
- complete performance

August 22nd, 1966
Candlestick Park, San Francisco
- 1 complete song and 3 partial songs from last concert!

Janaury 1969
Apple Rooftop, London, England
- all 6 songs from Let It Be film

Video: NTSC/4:3
Audio: AC3/256 Kbps/2 Ch

DVD Cover Included
links Free Downlaod From

01 - KatFile
Beatles_LiveinConcert_DVD1.part1.rar - 1.2 GB
Beatles_LiveinConcert_DVD1.part2.rar - 1.2 GB
Beatles_LiveinConcert_DVD1.part3.rar - 1.2 GB
Beatles_LiveinConcert_DVD1.part4.rar - 258.2 MB

Beatles_LiveinConcert_DVD2.part1.rar - 1.2 GB
Beatles_LiveinConcert_DVD2.part2.rar - 1.2 GB
Beatles_LiveinConcert_DVD2.part3.rar - 1.2 GB
Beatles_LiveinConcert_DVD2.part4.rar - 457.1 MB

02 - AusFile
Beatles_LiveinConcert_DVD1.part1.rar - 1.2 GB
Beatles_LiveinConcert_DVD1.part2.rar - 1.2 GB
Beatles_LiveinConcert_DVD1.part3.rar - 1.2 GB
Beatles_LiveinConcert_DVD1.part4.rar - 258.2 MB

Beatles_LiveinConcert_DVD2.part1.rar - 1.2 GB
Beatles_LiveinConcert_DVD2.part2.rar - 1.2 GB
Beatles_LiveinConcert_DVD2.part3.rar - 1.2 GB
Beatles_LiveinConcert_DVD2.part4.rar - 457.1 MB

Wednesday, January 16, 2019

Taylor Swift - 2018 - reputation Stadium Tour - HD-Webcast > DVD


Thanks To Original Uploader For File Produce The DVD
DVD Authoring & DVD Cover By Deer 5001

*****/*****

Taylor Swift - 2018 - reputation Stadium Tour

Setlist:

01 - Intro
02 - . ...Ready For It?
03 - I Did Something Bad
04 - Gorgeous
05 - Style/Love Story/You Belong with Me Mashup
06 - Look What You Made Me Do
07 - End Game
08 - King of My Heart
09 - Delicate
10 - Shake It Off
11 - Dancing with Our Hands Tied (Acoustic)
12 - All Too Well (Acoustic)
13 - Blank Space
14 - Dress
15 - Bad Blood/Should've Said No Mashup
16 - Don't Blame Me
17 - Long Live/New Year's Day Mashup
18 - Getaway Car
19 - Call It What You Want
20 - We Are Never Ever Getting Back Together/This Is Why We Can't Have Nice Things Mashup
21 - Credits

Total Time: 02:05:21

DVD Info
Menu: Yes
Chapters (SongSelect): Yes
SoundMenu: Yes
AudioSetup: Yes
DVD Produce From HD: Yes (Excellence Video & Audio)
Video: NTSC/16:9 Widescreen
Audio1: AC3/448 Kbps/5.1 Ch

DVD Cover Included
links Free Downlaod From
01 - KatFile
TaylorSwift_2018_reputationStadiumTour.part1.rar - 1.2 GB
TaylorSwift_2018_reputationStadiumTour.part2.rar - 1.2 GB
TaylorSwift_2018_reputationStadiumTour.part3.rar - 1.2 GB
TaylorSwift_2018_reputationStadiumTour.part4.rar - 564.0 MB

02 - AusFile
TaylorSwift_2018_reputationStadiumTour.part1.rar - 1.2 GB
TaylorSwift_2018_reputationStadiumTour.part2.rar - 1.2 GB
TaylorSwift_2018_reputationStadiumTour.part3.rar - 1.2 GB
TaylorSwift_2018_reputationStadiumTour.part4.rar - 564.0 MB

Tuesday, January 15, 2019

Nightwish - 2016-02-25 - Columbus, OH - HD-aud > DVD


Thanks To "Death Stalker" For File Video & Request Produce The DVD
DVD Authoring & DVD Cover By Deer 5001
Visit To www.Deer5001RockConcert.Blogspot.com

*****/*****

Nightwish
Live at Lifestyle Communities Pavilion
Columbus, OH
2016-02-25

Setlist:

01 - Shudder Before the Beautiful
02 - Yours Is an Empty Hope
03 - Bless the Child
04 - She Is My Sin
05 - My Walden
06 - While Your Lips Are Still Red
07 - Elan
08 - Weak Fantasy
09 - 7 Days to the Wolves
10 - Storytime
11 - I Want My Tears Back
12 - Nemo
13 - Stargazers
14 - Ghost Love Score
15 - Last Ride of the Day
16 - The Greatest Show on Earth

Total Time: 01:42:56

DVD Info
Menu: Yes
Chapters (SongSelect): Yes
SoundMenu: Yes
AudioSetup: Yes
DVD Produce From HD: Yes (Excellence Video & Audio)
Video: NTSC/16:9 Widescreen
Audio1: AC3/448 Kbps/5.1 Ch
Audio2: AC3/448 Kbps/2 Ch
Audio3: LPCM/1536 Kbps/2 Ch

DVD Cover Included
links Free Download From
01 - KatFile
Nightwish_20160225_ColumbusOH.part1.rar - 1.2 GB
Nightwish_20160225_ColumbusOH.part2.rar - 1.2 GB
Nightwish_20160225_ColumbusOH.part3.rar - 1.2 GB
Nightwish_20160225_ColumbusOH.part4.rar - 335.5 MB

02 - AusFile
Nightwish_20160225_ColumbusOH.part1.rar - 1.2 GB
Nightwish_20160225_ColumbusOH.part2.rar - 1.2 GB
Nightwish_20160225_ColumbusOH.part3.rar - 1.2 GB
Nightwish_20160225_ColumbusOH.part4.rar - 335.5 MB